<?xml version="1.0" standalone="no"?>
<!DOCTYPE svg PUBLIC "-//W3C//DTD SVG 1.1//EN" "http://www.w3.org/Graphics/SVG/1.1/DTD/svg11.dtd" >
<svg>
<metadata>
Created by FontForge 20110222 at Mon Mar  7 04:45:33 2011
 By www-data
(c) 1998 Digital Graphic Labs - All Rights Reserved
</metadata>
<defs>
<font id="MICREncoding" horiz-adv-x="2048" >
  <font-face 
    font-family="MICR Encoding"
    font-weight="400"
    font-stretch="normal"
    units-per-em="4096"
    panose-1="2 11 6 0 5 3 2 2 2 4"
    ascent="3276"
    descent="-820"
    cap-height="1894"
    bbox="31.2759 0 2442 1913"
    underline-thickness="0"
    underline-position="0"
    unicode-range="U+0020-00E0"
  />
    <missing-glyph />
    <glyph glyph-name="space" unicode=" " 
 />
    <glyph glyph-name="zero" unicode="0" 
d="M700 170h313h312q56 0 102 19q47 19 83 60q14 16 25 35t19 38q7 20 11.5 40t4.5 39v535v534q0 27 -6 52t-17 47q-10 21 -23.5 40t-29.5 33q-18 16 -39.5 28t-45.5 19t-50.5 11t-55.5 4h-288h-287q-60 0 -110 -17q-25 -8 -46.5 -22t-38.5 -34q-12 -14 -23.5 -32.5
t-20.5 -35.5q-8 -17 -13.5 -31.5t-5.5 -22.5v-573v-574q0 -7 6.5 -22.5t15.5 -33.5t21.5 -36.5t25.5 -30.5q16 -15 33 -27.5t37 -21.5q19 -9 42 -14.5t49 -5.5zM680 0q-47 0 -85.5 9.5t-70.5 24.5q-32 16 -58.5 36.5t-50.5 42.5q-26 24 -47.5 56t-36.5 65q-16 33 -24.5 65.5
t-8.5 56.5v583v583q0 18 7.5 47t21.5 61q14 33 36 67t50 63q24 23 53.5 44t63.5 36t75 24t88 9h316h315q49 0 90.5 -7t76.5 -20t66 -32.5t57 -43.5q28 -26 51.5 -58.5t40.5 -64.5q16 -33 26 -65.5t10 -60.5l1 -565l2 -565q0 -40 -7.5 -77.5t-21.5 -71.5q-28 -67 -84 -125
q-21 -22 -50.5 -43.5t-63.5 -37.5q-33 -16 -68 -26t-67 -10h-352h-351z" />
    <glyph glyph-name="one" unicode="1" 
d="M1309 1799v-432v-433q0 -12 3 -24.5t9 -24.5q5 -11 12.5 -22t15.5 -19t19 -15t22 -12q11 -4 22 -7t20 -3h113h113q9 0 17 -0.5t16 -3.5q16 -7 33 -30q4 -5 7.5 -10t5.5 -10q4 -11 4 -24v-326v-326q0 -7 -1.5 -14.5t-5.5 -13.5q-6 -13 -16 -23q-12 -12 -26 -19
q-15 -7 -27 -7h-329h-328q-4 0 -10 1.5t-12 4.5q-5 3 -12 7t-12 10q-5 4 -9 11l-8 14q-3 6 -5 13t-2 12v329v329q0 6 2 13.5t5 13.5q3 7 7.5 13.5t8.5 10.5q4 5 11 10t14 8q15 7 27 7h9h8h10h9q3 0 9.5 2.5t13.5 5.5q6 3 13.5 8t12.5 10q4 5 9 11t8 12q6 12 6 21v328v328
q0 7 -2 13.5t-6 12.5q-3 6 -7.5 12t-9.5 10q-5 5 -12 9.5t-14 7.5t-13 5t-9 2h-17h-18q-5 0 -12 2t-14 5q-6 3 -13 7.5t-12 9.5t-9.5 12t-7.5 13q-3 7 -5 14t-2 13v58v58q0 10 2 17.5t5 13.5t8 12t10 11q9 9 21 16q6 3 13.5 5t15.5 2h55h55h55h54q6 0 13.5 -2t13.5 -5
q7 -3 14 -7t12 -9q6 -6 10 -12.5t7 -12.5q7 -14 7 -27z" />
    <glyph glyph-name="two" unicode="2" 
d="M1016 1900h323h323q15 0 28 -6q14 -7 25 -18q13 -13 19 -23.5t7 -17.5t0.5 -11t-0.5 -5v-434v-434q0 -4 -2.5 -11t-5.5 -13q-7 -14 -18 -24q-5 -5 -11 -10t-12 -8q-6 -4 -13 -6t-15 -2h-212h-213q-24 0 -47 -10t-41 -29q-9 -9 -16.5 -19t-13.5 -22q-5 -11 -8 -22.5
t-3 -22.5v-215v-214q0 -10 2.5 -21.5t6.5 -22.5q5 -10 11.5 -21t13.5 -19q16 -19 41 -30q12 -5 23 -8.5t20 -3.5h218h218q15 0 29 -7.5t24 -18.5q11 -12 18 -27t7 -31t-5.5 -32t-15.5 -28t-24.5 -20t-32.5 -8h-322h-323q-13 0 -28 8q-7 3 -14 8t-13 10q-5 6 -10 13t-8 14
q-7 15 -7 27l-1 431v431q0 7 2 15.5t6 15.5q3 8 8.5 14.5t10.5 11.5q6 6 13 11t14 7q15 7 25 7h213h214q12 0 23.5 3.5t23.5 8.5q24 11 41 31q8 8 14 18.5t10 20.5q5 11 7.5 23t2.5 24v211v210q0 11 -2.5 22.5t-6.5 23.5q-9 22 -28 43q-6 7 -15.5 14.5t-20.5 12.5
q-10 6 -22 10t-23 4h-217h-216q-9 0 -24 7q-7 3 -14 8t-13 11q-6 5 -10.5 12.5t-8.5 14.5q-7 16 -7 31q0 16 7 34q8 17 20 29q11 12 25 18q16 6 26 6z" />
    <glyph glyph-name="three" unicode="3" 
d="M800 1901h326h326q6 0 13 -1.5t14 -4.5q14 -6 26 -17q6 -5 11 -11t8 -12q7 -13 7 -26l-1 -386v-386q0 -9 2 -20t5 -20q7 -21 20 -39q6 -8 14 -15.5t16 -11.5q9 -5 18.5 -8.5t20.5 -3.5h30l30 -1q4 0 9.5 -2t9.5 -5q10 -6 17 -16q7 -9 11 -22q2 -6 3.5 -12t1.5 -11v-383
v-383q0 -6 -1.5 -12t-3.5 -12q-6 -13 -13 -22q-7 -8 -15 -14t-16 -10q-8 -5 -15 -7.5t-12 -2.5h-429h-429q-11 0 -24 5t-25 15q-11 10 -20 26.5t-9 39.5q0 26 9 43t22 26q12 9 25 12.5t21 3.5h218l219 1q4 0 15 3t23 8q13 5 25.5 12.5t19.5 16.5q9 8 15.5 18.5t11.5 21.5
q5 10 7.5 21t2.5 21v215v215q0 12 -3 24t-8 23q-10 25 -28 43q-16 18 -38 28q-22 11 -48 11h-215h-215q-22 0 -38 10.5t-25 24.5t-13 28.5t-4 23.5q1 17 8 33t17 27q11 11 25.5 18t29.5 7h214h215q14 0 26 3t23 8q22 9 40 27q9 9 16 20.5t11 22.5q5 12 7.5 25.5t2.5 26.5
l1 207l2 208q0 14 -2.5 26t-6.5 22t-10.5 19.5t-14.5 18.5q-11 12 -24 21t-25 15q-13 5 -25.5 7.5t-22.5 2.5h-215h-215q-11 0 -24 5t-24 15q-12 10 -20 26.5t-8 39.5t8 39.5t20 26.5q11 11 24 15.5t22 4.5z" />
    <glyph glyph-name="four" unicode="4" 
d="M811 1901q12 0 26 -7q6 -3 13 -7.5t13 -10.5q5 -5 10 -12t9 -13q4 -7 6 -14.5t2 -14.5v-537v-537q0 -11 2.5 -23.5t7.5 -24.5q10 -25 30 -45q8 -9 18.5 -16t21.5 -11q22 -10 43 -10h116h117q9 0 20.5 2.5t22.5 5.5q11 4 22 10.5t19 13.5q9 9 15.5 19.5t10.5 20.5
q9 23 9 43v17v16q0 7 1.5 13.5t4.5 12.5q2 6 6.5 12t9.5 10q4 5 11 8t13 5q7 2 13.5 3t11.5 1h117h118q10 0 22 -6q13 -7 24 -18q6 -5 11 -11.5t7 -12.5q8 -14 8 -26l-1 -327v-326q0 -12 -6 -26q-6 -13 -16 -24q-5 -6 -12 -11.5t-13 -9.5q-7 -4 -14.5 -6t-14.5 -2h-110h-110
q-14 0 -30 7q-7 3 -14 8t-13 10q-11 11 -18 26q-7 14 -7 24v113v113q0 10 -3.5 21t-7.5 22q-5 12 -12.5 22t-15.5 19q-9 8 -19 15t-21 11q-21 9 -42 9l-326 1h-326q-13 0 -29 7q-8 4 -15.5 9.5t-14.5 13.5q-4 4 -7.5 9.5t-6.5 10.5q-6 13 -8 26v640v639q0 11 2 21t4 19
q6 18 18 30q7 6 15 12t15 9q7 4 13.5 6.5t10.5 2.5h112h111z" />
    <glyph glyph-name="five" unicode="5" 
d="M1658 1900q14 0 29 -4.5t26 -15.5q12 -10 19.5 -26.5t7.5 -38.5q1 -23 -8 -39.5t-21 -26.5t-26.5 -15.5t-23.5 -5.5h-318l-317 1q-10 0 -22 -3t-23 -8t-21.5 -12t-19.5 -16q-21 -18 -32 -42q-5 -11 -8.5 -23t-3.5 -23l1 -212v-212q0 -19 9 -41t25 -40q9 -10 19.5 -19
t21.5 -15q12 -7 25 -11t27 -4h319h320q13 0 27 -7q7 -3 14 -8.5t12 -10.5q6 -6 10.5 -12.5t6.5 -12.5q4 -7 5.5 -14t1.5 -14v-432v-433q0 -8 -2 -16t-5 -13q-3 -7 -7 -12.5t-8 -10.5q-12 -14 -28 -22q-15 -7 -29 -7h-430h-430q-13 0 -27 7.5t-26 18.5q-11 12 -18.5 27
t-7.5 31q0 19 -0.5 35.5t5.5 27.5q6 12 23.5 19t53.5 7h320h319q11 0 23 3t23 8q11 6 22 13t20 16q17 15 27 37q5 10 8 22t3 24v219v218q0 9 -3 20t-9 22q-5 11 -13.5 22t-17.5 20q-9 8 -19 15t-20 12q-21 9 -39 9h-322h-322q-6 0 -13.5 2.5t-14.5 5.5q-15 7 -28 19
q-5 5 -10 12t-8 13q-7 15 -7 28v433v432q1 7 3.5 14t5.5 14q6 13 18 25q4 4 10.5 8.5t12.5 8.5q15 7 31 10h427z" />
    <glyph glyph-name="six" unicode="6" 
d="M1234 1901q7 0 16 -2.5t16 -6.5q9 -4 16 -10t13 -13q5 -6 9.5 -12.5t7.5 -12.5q6 -14 6 -27v-162v-162q0 -17 -7.5 -31.5t-19.5 -25.5q-12 -10 -27.5 -16t-31.5 -6q-18 0 -33.5 3t-27.5 11t-19.5 24t-7.5 41v53l-1 52q0 10 -3 22t-7 23q-5 12 -12.5 24t-16.5 21
q-19 18 -41 29q-25 11 -47 11h-102h-103q-24 0 -47 -10q-12 -5 -22.5 -12t-19.5 -16t-17 -20.5t-13 -22.5q-6 -12 -9 -24.5t-3 -23.5l1 -321v-320q0 -10 2.5 -20.5t6.5 -21.5q9 -22 25 -40q18 -20 42 -31q12 -6 25 -9.5t27 -3.5h426h426q13 0 27.5 -7.5t25.5 -18.5
t18.5 -24.5t7.5 -26.5v-324v-325q0 -6 -2.5 -13.5t-4.5 -14.5q-3 -7 -8 -14t-10 -13q-6 -6 -12.5 -11t-13.5 -8q-6 -4 -13.5 -6t-14.5 -2h-535h-537q-6 0 -14 2.5t-15 6.5q-7 3 -14.5 8.5t-13.5 11.5q-10 11 -16 24q-3 7 -4.5 13.5t-1.5 13.5v857l-1 858q0 7 2.5 15t5.5 14
q7 14 18 26q12 12 27 19t27 7l323 1h322zM807 195h316h316q26 0 49 11t39 29q17 18 27.5 43t10.5 53v97v97q0 28 -10.5 53t-27.5 43q-16 18 -39 28.5t-49 10.5h-316h-316q-26 0 -49 -10.5t-40 -28.5q-16 -18 -26 -43t-10 -53v-97v-97q0 -28 10 -53t26 -43q17 -18 40 -29
t49 -11z" />
    <glyph glyph-name="seven" unicode="7" 
d="M1656 1901q10 0 19.5 -2t17.5 -5q8 -4 15.5 -9t13.5 -10q7 -6 11.5 -13t7.5 -13q3 -7 5 -15t2 -15v-356l-1 -356q0 -4 -0.5 -10t-0.5 -12q-2 -13 -7 -23q-2 -5 -6 -10t-9 -8q-4 -4 -8.5 -7.5t-9.5 -5.5l-77 -36l-77 -35l-77 -36l-77 -36q-8 -3 -15.5 -7.5t-14.5 -9.5
q-14 -10 -24 -21q-4 -6 -8.5 -12.5t-6.5 -12.5t-4 -12.5t-2 -12.5l1 -348v-348q0 -22 -7.5 -37.5t-19.5 -24.5q-12 -10 -27.5 -14.5t-32.5 -4.5q-16 0 -32 8t-28 19q-13 11 -20.5 25.5t-7.5 28.5v411v411q0 7 2 13.5t4 12.5q4 7 8 13.5t9 11.5t11 10.5t11 9.5q6 4 12 7.5
t10 5.5l141 63l140 62q7 3 16.5 7t18.5 9t17.5 13t13.5 20q2 3 4 8t2 9q2 10 2 22v185v185q0 11 -2.5 22.5t-6.5 23.5t-11.5 23t-15.5 20q-9 10 -20 19t-23 14q-25 13 -49 13h-210h-209q-20 0 -43 -11q-23 -10 -40 -27q-9 -10 -17 -22t-13 -23q-5 -13 -7.5 -26t-2.5 -24
v-106v-105q0 -15 -6.5 -29.5t-17.5 -25.5q-11 -12 -25.5 -19t-31.5 -8q-22 -1 -39.5 8t-28.5 22q-12 13 -18 27.5t-6 24.5v211l1 210q0 15 2 26t6 18q4 8 9.5 14t11.5 13q13 12 28 18q15 7 32 7h419h419z" />
    <glyph glyph-name="eight" unicode="8" 
d="M797 1065h220h221q23 0 44 9t36 25t24 37.5t9 46.5v212v212q0 25 -9 46.5t-24 37.5t-36 25.5t-44 9.5h-221h-220q-24 0 -44.5 -9.5t-35.5 -25.5t-24.5 -37.5t-9.5 -46.5v-212v-212q0 -25 9.5 -46.5t24.5 -37.5t35.5 -25t44.5 -9zM803 212h214h215q24 0 46 9.5t38 24.5
q17 16 26.5 37.5t9.5 45.5v224v223q0 24 -9.5 45.5t-26.5 37.5q-16 15 -38 24.5t-46 9.5h-215h-214q-25 0 -46.5 -9.5t-38.5 -24.5q-16 -15 -25.5 -37t-9.5 -46v-223v-224q0 -24 9.5 -45.5t25.5 -37.5q17 -15 38.5 -24.5t46.5 -9.5zM289 122v395v395q0 12 7 23q5 10 16 18
q7 5 15 10t16 8q17 6 32 6h29h29q5 0 12 3t13 6q7 4 14.5 9.5t13.5 11.5t11 12t9 12q8 13 8 23v382v383q0 9 2.5 18.5t6.5 17.5t9 16t11 13q5 6 13 11.5t14 8.5q7 4 13 6t8 2h426l426 1q15 0 32 -10q8 -5 17 -11t16 -14q12 -11 18 -22.5t9 -20.5q2 -9 2.5 -16t0.5 -11v-378
v-377q0 -7 2.5 -14.5t5.5 -13.5q3 -7 8.5 -13t10.5 -11q5 -4 11 -8t13 -8q8 -3 16 -5.5t16 -2.5h25h26q8 0 15.5 -2.5t13.5 -6.5q6 -3 12 -8t12 -9q11 -10 16 -24q6 -15 6 -28l-1 -218v-219v-171v-171q0 -8 -2.5 -16.5t-5.5 -16.5q-4 -8 -9 -16t-11 -15q-13 -15 -28 -22
q-8 -4 -16 -6.5t-16 -2.5h-318h-318h-317h-318q-9 0 -18 3t-18 7t-17 10t-15 13t-12.5 15t-9.5 16q-8 18 -8 33z" />
    <glyph glyph-name="nine" unicode="9" 
d="M602 1903h526h527q19 0 35 -7t29 -20q6 -6 11.5 -13.5t8.5 -15.5q3 -7 5.5 -16t2.5 -19v-850v-850q0 -8 -1.5 -15.5t-4.5 -14.5t-7 -14t-9 -12q-12 -14 -31 -22q-18 -9 -38 -9h-106h-105q-6 0 -13.5 2t-14.5 6q-6 4 -13.5 9.5t-12.5 10.5q-11 10 -18 23q-6 12 -6 24v323
v322q0 25 -10 49q-4 11 -11 21.5t-15 18.5q-9 10 -20 18.5t-22 13.5q-12 5 -24.5 8.5t-24.5 3.5h-319h-319q-9 0 -19 2t-18 6q-17 7 -30 22q-5 5 -9.5 12.5t-6.5 15.5q-3 8 -5 16t-2 15v423v423q0 10 2.5 19.5t6.5 17.5q3 8 8.5 15.5t12.5 13.5q6 6 13 10.5t14 6.5
q8 3 16.5 5t16.5 2zM813 1051h313h313q13 0 26.5 3t24.5 8q12 5 22.5 12.5t19.5 16.5q18 18 28 42q5 12 8 25t3 27v206v204q0 14 -3 27.5t-8 25.5q-4 12 -11.5 22.5t-16.5 19.5t-19.5 16.5t-22.5 12.5q-11 5 -24.5 7.5t-26.5 2.5h-313h-313q-24 0 -45 -8q-11 -4 -20.5 -9.5
t-18.5 -12.5q-10 -9 -19.5 -20.5t-15.5 -24.5t-9.5 -28t-3.5 -31v-204v-206q0 -26 10 -51q5 -12 12.5 -23t16.5 -20q19 -19 41 -29q12 -4 25 -7.5t27 -3.5z" />
    <glyph glyph-name="A" unicode="A" 
d="M374 347q-15 0 -29 6q-14 5 -25 16t-16 24q-6 15 -6 30v540v539q0 14 6 29t16 25t25 16q7 3 14.5 5t14.5 2h106h107q15 0 30 -7q14 -5 24 -16q11 -11 17 -25q6 -15 6 -29v-539v-540q0 -9 -2.5 -17.5t-5.5 -15.5q-7 -15 -20 -26q-5 -4 -11 -7.5t-12 -5.5q-6 -1 -12.5 -2.5
t-13.5 -1.5h-107h-106zM1225 23q-8 0 -16.5 1.5t-15.5 4.5q-15 7 -26 17q-12 12 -18 27t-6 31v213v213q0 8 2 16t5 15q6 15 17 26q6 6 12.5 10.5t13.5 7.5t15.5 5t16.5 2h212h212q8 0 16 -2t16 -5q15 -7 26 -18q12 -11 18 -26t6 -31v-213v-213q0 -16 -6 -32q-7 -15 -18 -26
q-10 -10 -26 -17q-16 -6 -32 -6h-212h-212zM1225 1305q-8 0 -16.5 1.5t-15.5 4.5t-13.5 7.5t-12.5 10.5q-12 12 -18 26q-6 15 -6 32v212v213q0 8 2 16.5t5 15.5q6 15 17 26q6 6 12.5 10.5t13.5 6.5q7 4 15.5 5.5t16.5 1.5h212h212q8 0 16 -1.5t16 -5.5q15 -6 26 -17
q12 -11 18 -26q6 -16 6 -32v-213v-212q0 -17 -6 -32q-6 -14 -18 -26q-11 -12 -26 -18t-32 -6h-212h-212z" />
    <glyph glyph-name="a" unicode="a" 
d="M374 347q-15 0 -29 6q-14 5 -25 16t-16 24q-6 15 -6 30v540v539q0 14 6 29t16 25t25 16q7 3 14.5 5t14.5 2h106h107q15 0 30 -7q14 -5 24 -16q11 -11 17 -25q6 -15 6 -29v-539v-540q0 -9 -2.5 -17.5t-5.5 -15.5q-7 -15 -20 -26q-5 -4 -11 -7.5t-12 -5.5q-6 -1 -12.5 -2.5
t-13.5 -1.5h-107h-106zM1225 23q-8 0 -16.5 1.5t-15.5 4.5q-15 7 -26 17q-12 12 -18 27t-6 31v213v213q0 8 2 16t5 15q6 15 17 26q6 6 12.5 10.5t13.5 7.5t15.5 5t16.5 2h212h212q8 0 16 -2t16 -5q15 -7 26 -18q12 -11 18 -26t6 -31v-213v-213q0 -16 -6 -32q-7 -15 -18 -26
q-10 -10 -26 -17q-16 -6 -32 -6h-212h-212zM1225 1305q-8 0 -16.5 1.5t-15.5 4.5t-13.5 7.5t-12.5 10.5q-12 12 -18 26q-6 15 -6 32v212v213q0 8 2 16.5t5 15.5q6 15 17 26q6 6 12.5 10.5t13.5 6.5q7 4 15.5 5.5t16.5 1.5h212h212q8 0 16 -1.5t16 -5.5q15 -6 26 -17
q12 -11 18 -26q6 -16 6 -32v-213v-212q0 -17 -6 -32q-6 -14 -18 -26q-11 -12 -26 -18t-32 -6h-212h-212z" />
    <glyph glyph-name="b" unicode="b" 
d="M382 23q-17 0 -33 6.5t-27 18.5q-12 12 -18.5 27.5t-6.5 33.5v318v318q0 18 6.5 34t18.5 28q11 11 27 18t33 7h103h102q18 0 33.5 -7t26.5 -18q12 -12 18.5 -28t6.5 -34v-318v-318q0 -18 -6.5 -33.5t-18.5 -27.5q-11 -12 -26.5 -18.5t-33.5 -6.5h-102h-103zM1443 1089
q-17 0 -33 7t-27 19q-12 11 -18.5 27t-6.5 34v318v318q0 18 6.5 34t18.5 27q11 12 27 19t33 7h103h102q18 0 33.5 -7t26.5 -19q12 -11 18.5 -27t6.5 -34v-318v-318q0 -18 -6.5 -34t-18.5 -27q-11 -12 -26.5 -19t-33.5 -7h-102h-103zM1015 1420h1q17 0 32 -8t27 -22
q11 -13 18 -31.5t7 -39.5v-359v-360q0 -20 -7 -38.5t-18 -32.5q-11 -13 -26.5 -21t-32.5 -8h-1q-17 0 -32.5 8t-26.5 21t-18 32t-7 39v360v359q0 21 7 39.5t18 31.5t26.5 21.5t32.5 8.5z" />
    <glyph glyph-name="B" unicode="B" 
d="M382 23q-17 0 -33 6.5t-27 18.5q-12 12 -18.5 27.5t-6.5 33.5v318v318q0 18 6.5 34t18.5 28q11 11 27 18t33 7h103h102q18 0 33.5 -7t26.5 -18q12 -12 18.5 -28t6.5 -34v-318v-318q0 -18 -6.5 -33.5t-18.5 -27.5q-11 -12 -26.5 -18.5t-33.5 -6.5h-102h-103zM1443 1089
q-17 0 -33 7t-27 19q-12 11 -18.5 27t-6.5 34v318v318q0 18 6.5 34t18.5 27q11 12 27 19t33 7h103h102q18 0 33.5 -7t26.5 -19q12 -11 18.5 -27t6.5 -34v-318v-318q0 -18 -6.5 -34t-18.5 -27q-11 -12 -26.5 -19t-33.5 -7h-102h-103zM1015 1420h1q17 0 32 -8t27 -22
q11 -13 18 -31.5t7 -39.5v-359v-360q0 -20 -7 -38.5t-18 -32.5q-11 -13 -26.5 -21t-32.5 -8h-1q-17 0 -32.5 8t-26.5 21t-18 32t-7 39v360v359q0 21 7 39.5t18 31.5t26.5 21.5t32.5 8.5z" />
    <glyph glyph-name="C" unicode="C" 
d="M1234 993q-8 0 -16 1.5t-15 3.5t-13.5 6.5t-11.5 9.5q-11 9 -17 23q-3 6 -5 13t-2 15v329v329q0 8 2 15t5 13q6 13 17 23q10 10 25 16q15 5 31 5h213h213q8 0 15.5 -1.5t14.5 -4.5q16 -6 26 -15t17 -23t7 -28v-329v-329q0 -15 -7 -28q-5 -13 -17 -23q-5 -5 -12 -9.5
t-14 -6.5t-14.5 -3.5t-15.5 -1.5h-213h-213zM811 348q-18 0 -33 6t-27 17q-11 10 -17.5 24t-6.5 30v540v539q0 16 6.5 30t17.5 24q12 11 27 17t33 6q17 0 32.5 -6t26.5 -17q11 -10 18 -24t7 -30v-539v-540q0 -16 -7 -30t-18 -24q-11 -11 -26.5 -17t-32.5 -6zM383 348
q-18 0 -33 6t-26 17q-12 10 -18.5 24t-6.5 30v540v539q0 16 6.5 30t18.5 24q11 11 26 17t33 6t33 -6t26 -17q12 -10 18.5 -24t6.5 -30v-539v-540q0 -16 -6.5 -30t-18.5 -24q-11 -11 -26 -17t-33 -6z" />
    <glyph glyph-name="c" unicode="c" 
d="M1234 993q-8 0 -16 1.5t-15 3.5t-13.5 6.5t-11.5 9.5q-11 9 -17 23q-3 6 -5 13t-2 15v329v329q0 8 2 15t5 13q6 13 17 23q10 10 25 16q15 5 31 5h213h213q8 0 15.5 -1.5t14.5 -4.5q16 -6 26 -15t17 -23t7 -28v-329v-329q0 -15 -7 -28q-5 -13 -17 -23q-5 -5 -12 -9.5
t-14 -6.5t-14.5 -3.5t-15.5 -1.5h-213h-213zM811 348q-18 0 -33 6t-27 17q-11 10 -17.5 24t-6.5 30v540v539q0 16 6.5 30t17.5 24q12 11 27 17t33 6q17 0 32.5 -6t26.5 -17q11 -10 18 -24t7 -30v-539v-540q0 -16 -7 -30t-18 -24q-11 -11 -26.5 -17t-32.5 -6zM383 348
q-18 0 -33 6t-26 17q-12 10 -18.5 24t-6.5 30v540v539q0 16 6.5 30t18.5 24q11 11 26 17t33 6t33 -6t26 -17q12 -10 18.5 -24t6.5 -30v-539v-540q0 -16 -6.5 -30t-18.5 -24q-11 -11 -26 -17t-33 -6z" />
    <glyph glyph-name="d" unicode="d" 
d="M382 561q-17 0 -33 5q-7 3 -14 7t-12 8q-6 5 -10.5 11t-7.5 11q-7 13 -7 28v332v331q0 7 2 14.5t5 12.5q7 13 18 22q11 10 26 15q8 3 16 4.5t17 1.5h101h102q9 0 17.5 -1.5t15.5 -4.5q14 -5 26 -15q6 -4 10.5 -10t7.5 -12q4 -6 5.5 -13t1.5 -14v-331v-332q0 -8 -2 -15
t-5 -13q-6 -12 -18 -22q-11 -9 -26 -15q-16 -5 -33 -5h-102h-101zM1012 561q-17 0 -33 5q-7 3 -13.5 7t-12.5 8q-5 5 -10 11t-8 11q-6 13 -6 28v332v331q0 7 1.5 14.5t4.5 12.5q7 13 18 22q5 5 12 9t14 6q8 3 16.5 4.5t16.5 1.5h102h102q8 0 16.5 -1.5t15.5 -4.5
q15 -5 27 -15q5 -4 10 -10t8 -12t5 -13t2 -14v-331v-332q0 -8 -2 -15t-5 -13q-6 -12 -18 -22q-12 -9 -27 -15q-16 -5 -32 -5h-102h-102zM1643 561q-17 0 -33 7q-7 3 -14 8t-12 11q-6 6 -11 13.5t-8 15.5q-6 16 -6 35v311v312q0 8 1.5 16t3.5 15q4 14 14 26q12 16 28 24
q9 4 18 6.5t19 2.5q18 0 33 -8q7 -3 14.5 -8t12.5 -11q12 -12 18 -28q3 -8 5 -17t2 -18v-312v-311q0 -14 -4 -27t-11 -24q-11 -18 -30 -28q-9 -5 -19 -8t-21 -3z" />
    <glyph glyph-name="D" unicode="D" 
d="M382 561q-17 0 -33 5q-7 3 -14 7t-12 8q-6 5 -10.5 11t-7.5 11q-7 13 -7 28v332v331q0 7 2 14.5t5 12.5q7 13 18 22q11 10 26 15q8 3 16 4.5t17 1.5h101h102q9 0 17.5 -1.5t15.5 -4.5q14 -5 26 -15q6 -4 10.5 -10t7.5 -12q4 -6 5.5 -13t1.5 -14v-331v-332q0 -8 -2 -15
t-5 -13q-6 -12 -18 -22q-11 -9 -26 -15q-16 -5 -33 -5h-102h-101zM1012 561q-17 0 -33 5q-7 3 -13.5 7t-12.5 8q-5 5 -10 11t-8 11q-6 13 -6 28v332v331q0 7 1.5 14.5t4.5 12.5q7 13 18 22q5 5 12 9t14 6q8 3 16.5 4.5t16.5 1.5h102h102q8 0 16.5 -1.5t15.5 -4.5
q15 -5 27 -15q5 -4 10 -10t8 -12t5 -13t2 -14v-331v-332q0 -8 -2 -15t-5 -13q-6 -12 -18 -22q-12 -9 -27 -15q-16 -5 -32 -5h-102h-102zM1643 561q-17 0 -33 7q-7 3 -14 8t-12 11q-6 6 -11 13.5t-8 15.5q-6 16 -6 35v311v312q0 8 1.5 16t3.5 15q4 14 14 26q12 16 28 24
q9 4 18 6.5t19 2.5q18 0 33 -8q7 -3 14.5 -8t12.5 -11q12 -12 18 -28q3 -8 5 -17t2 -18v-312v-311q0 -14 -4 -27t-11 -24q-11 -18 -30 -28q-9 -5 -19 -8t-21 -3z" />
    <glyph glyph-name="agrave" unicode="&#xe0;" horiz-adv-x="2564" 
d="M126 172v532h-8q-12 0 -25 2t-19 2q-27 10 -36.5 31.5t-4.5 44t23 39.5t46 17h4.5h7.5l8 2l8 2q71 0 145 5t145.5 -1t136.5 -31t117 -85q24 -27 42 -59t30 -65q27 -81 30 -169t-22 -171q-9 -30 -23.5 -58.5t-32.5 -53.5q-18 -24 -43.5 -46.5t-52.5 -37.5
q-46 -25 -107 -34t-126 -9t-128.5 3.5t-114.5 3.5q-18 0 -35 5.5t-29 14.5q-12 12 -20 29t-8 35q0 25 21.5 36.5t42.5 11.5q6 0 14 2t14 2zM262 172q45 0 96.5 -3.5t100 2.5t89.5 27t66 70q50 115 39 197.5t-64.5 135.5t-140 78t-186.5 25v-532zM1594 100q-27 -9 -53 -19.5
t-47 -16.5q-53 -22 -112.5 -34t-120.5 -12t-120 12t-111 38q-15 6 -29 16.5t-23 19.5q-12 9 -21 20.5t-15 23.5q-25 51 -36.5 115.5t-11.5 120.5q0 83 20 167.5t64.5 152t114 110t169.5 42.5q6 0 16.5 -2t19.5 -2q22 0 45 -3.5t45.5 -8t45 -8.5t44.5 -4q3 0 7.5 4l4.5 4
q17 18 32 15t26.5 -17t18.5 -33.5t7 -36.5q5 -23 10 -47t4.5 -47.5t-8 -45t-26.5 -40.5q-6 -6 -17 -9t-23 -3t-20.5 3t-11.5 9q-20 38 -34 65t-33.5 44.5t-51 26t-85.5 8.5q-52 0 -98.5 -15.5t-81.5 -45t-55.5 -73t-20.5 -98.5q0 -27 2 -56.5t2 -59.5q7 -71 17.5 -117
t25.5 -73t35 -37.5t45 -10.5t56.5 7t69.5 16t83.5 16t99.5 7v96h-8.5h-11.5q-22 0 -58.5 -2.5t-70.5 1t-58.5 18.5t-24.5 51v8v4q6 23 27 39.5t45 16.5q32 8 78.5 13.5t95 5t94.5 -7.5t76 -23q6 -6 11 -14t5 -14q0 -32 -9.5 -56.5t-20.5 -47.5t-20.5 -47.5t-9.5 -56.5
q0 -11 -2 -31t-2 -41zM2010 704v-532h296v128q0 22 5.5 38.5t14.5 25.5q9 12 20.5 18t23.5 6t25.5 -3.5t22.5 -12.5q24 -23 24 -72v-264h-644q-16 0 -32.5 4t-29.5 12t-21.5 21t-8.5 31q0 21 6 35.5t18 20.5t31 9t37 3h76v532q-20 0 -49 -0.5t-55.5 4.5t-45 19.5t-18.5 45.5
v6.5v4.5q2 9 1.5 11t-3.5 2.5t-7 2t-7 8.5q12 13 35.5 24t55 18.5t68 12t74 6t74 -0.5t68 -7t56 -14.5t37.5 -22.5q12 -12 18 -23.5t6 -20.5q0 -31 -18.5 -48t-44.5 -24.5t-56 -7t-53 3.5z" />
  </font>
</defs>
</svg>
